Chris Rock Tamborine 2018 720p WEB-HD DD 5.1 x264 ESub

  • Category Movies
  • Type HD
  • Language English
  • Total size 669.1 MB
  • Uploaded By moviezworldz
  • Downloads 361
  • Last checked 1 week ago
  • Date uploaded 1 week ago
  • Seeders 32
  • Leechers 16

Chris Rock: Tamborine

Comedy

Chris Rock takes the stage for his first comedy special in 10 years, filled with searing observations on fatherhood, infidelity, and American politics. Directed by Bo Burnham and filmed at New York’s Brooklyn Academy of Music.

Infohash : 99291EACE0F2608D46BB2C057011BB42E9BCD8B6




General
Format : Matroska
Format version : Version 4 / Version 2
File size : 669 MiB
Duration : 1 h 4 min
Overall bit rate : 1 441 kb/s

Video
ID : 1
Format : AVC
Format/Info : Advanced Video Codec
Format profile : [email protected]
Format settings : CABAC / 4 Ref Frames
Format settings, CABAC : Yes
Format settings, ReFrames : 4 frames
Codec ID : V_MPEG4/ISO/AVC
Duration : 1 h 4 min
Bit rate : 1 200 kb/s
Width : 1 280 pixels
Height : 676 pixels
Display aspect ratio : 1.893
Frame rate mode : Constant
Frame rate : 23.976 (24000/1001) FPS
Color space : YUV
Chroma subsampling : 4:2:0
Bit depth : 8 bits
Scan type : Progressive
Bits/(Pixel*Frame) : 0.058
Stream size : 549 MiB (82%)
Writing library : x264 core 148 r2708 86b7198
Default : Yes
Forced : No

Audio
ID : 7
Format : AC-3
Format/Info : Audio Coding 3
Codec ID : A_AC3
Duration : 1 h 4 min
Bit rate mode : Constant
Bit rate : 256 kb/s
Channel(s) : 6 channels
Channel positions : Front: L C R, Side: L R, LFE
Sampling rate : 48.0 kHz
Frame rate : 31.250 FPS (1536 SPF)
Bit depth : 16 bits
Compression mode : Lossy
Stream size : 119 MiB (18%)
Language : English
Service kind : Complete Main
Default : Yes
Forced : No

Quote:

Text #1
ID : 2
Format : UTF-8
Codec ID : S_TEXT/UTF8
Codec ID/Info : UTF-8 Plain Text
Duration : 1 h 4 min
Bit rate : 79 b/s
Count of elements : 996
Stream size : 37.7 KiB (0%)
Language : English
Default : No
Forced : No

Text #2
ID : 3
Format : UTF-8
Codec ID : S_TEXT/UTF8
Codec ID/Info : UTF-8 Plain Text
Duration : 1 h 3 min
Bit rate : 66 b/s
Count of elements : 891
Stream size : 31.1 KiB (0%)
Language : Dutch
Default : No
Forced : No

Text #3
ID : 4
Format : UTF-8
Codec ID : S_TEXT/UTF8
Codec ID/Info : UTF-8 Plain Text
Duration : 1 h 3 min
Bit rate : 69 b/s
Count of elements : 945
Stream size : 32.5 KiB (0%)
Title : European
Language : Spanish
Default : No
Forced : No

Text #4
ID : 5
Format : UTF-8
Codec ID : S_TEXT/UTF8
Codec ID/Info : UTF-8 Plain Text
Duration : 1 h 3 min
Bit rate : 67 b/s
Count of elements : 933
Stream size : 31.7 KiB (0%)
Language : French
Default : No
Forced : No

Text #5
ID : 6
Format : UTF-8
Codec ID : S_TEXT/UTF8
Codec ID/Info : UTF-8 Plain Text
Duration : 1 h 3 min
Bit rate : 74 b/s
Count of elements : 930
Stream size : 34.9 KiB (0%)
Language : German
Default : No
Forced : No











Files:

Chris Rock Tamborine 2018 720p WEB-HD DD 5.1 x264 ESub
  • Chris Rock Tamborine 2018 720p WEB-HD DD 5.1 x264 ESub.mkv (669.1 MB)

There are currently no comments. Feel free to leave one :)

Code:

  • udp://tracker.coppersurfer.tk:6969/announce
  • udp://tracker.leechers-paradise.org:6969/announce
  • udp://inferno.demonoid.pw:3391/announce
  • udp://tracker.tntvillage.scambioetico.org:2710/announce
  • udp://tracker.pirateparty.gr:6969/announce
  • udp://9.rarbg.com:2770/announce
  • udp://public.popcorn-tracker.org:6969/announce
  • udp://tracker.zer0day.to:1337/announce
  • http://bigfoot1942.sektori.org:6969/announce
  • udp://ipv4.tracker.harry.lu:80/announce
  • udp://shadowshq.yi.org:6969/announce
  • udp://tracker.vanitycore.co:6969/announce
  • udp://tracker.opentrackr.org:1337/announce
  • udp://explodie.org:6969/announce
  • udp://tracker.zer0day.to:1337/announce
  • udp://tracker.leechers-paradise.org:6969/announce
  • udp://coppersurfer.tk:6969/announce