Great British Railway Journeys S09E10 Plymouth to The Lizard (720...

  • Category TV
  • Type HD
  • Language English
  • Total size 499.3 MB
  • Uploaded By ElsonRoa
  • Downloads 48
  • Last checked 2 days ago
  • Date uploaded 1 week ago
  • Seeders 2
  • Leechers 4

Infohash : 04EAFAFF7F7E712A343A648D7A834BCC7FBD5242

Great British Railway Journeys S09E10 Plymouth to The Lizard (720p HD, soft Eng subs)

Steered by his early 20th-century Bradshaw's railway guide, Michael Portillo boldly goes to the moon by way of the Cornish Riviera Express! On the trail of an historic achievement made at the dawn of the Edwardian era, he investigates the first radio signal to be sent across the Atlantic.

In Plymouth, Michael uncovers what happened to surviving crew members of the most famous ocean liner in history, the Titanic. And at Fowey, he rediscovers a lost literary figure known as Q, who immortalised the town in his novels.

(with soft subtitles)
First broadcast: 12 January 2017
Duration: 30 minutes



Media info:-
General
Format : MPEG-4
Format profile : Base Media
Codec ID : isom (isom/iso2/avc1/mp41)
File size : 498 MiB
Duration : 28mn 59s
Overall bit rate mode : Variable
Overall bit rate : 2 403 Kbps
Writing application : Lavf57.25.100


Video
ID : 1
Format : AVC
Format/Info : Advanced Video Codec
Format profile : [email protected]
Format settings, CABAC : Yes
Format settings, ReFrames : 2 frames
Codec ID : avc1
Codec ID/Info : Advanced Video Coding
Duration : 28mn 59s
Bit rate mode : Variable
Bit rate : 2 304 Kbps
Maximum bit rate : 3 500 Kbps
Width : 1 280 pixels
Height : 720 pixels
Display aspect ratio : 16:9
Frame rate mode : Constant
Frame rate : 25.000 fps
Color space : YUV
Chroma subsampling : 4:2:0
Bit depth : 8 bits
Scan type : Progressive
Bits/(Pixel*Frame) : 0.100
Stream size : 478 MiB (96%)

Audio
ID : 2
Format : AAC
Format/Info : Advanced Audio Codec
Format profile : LC
Codec ID : 40
Duration : 28mn 58s
Bit rate mode : Variable
Bit rate : 93.4 Kbps
Maximum bit rate : 113 Kbps
Channel(s) : 2 channels
Channel positions : Front: L R
Sampling rate : 48.0 KHz
Frame rate : 46.875 fps (1024 spf)
Compression mode : Lossy
Stream size : 19.4 MiB (4%)

Files:

Great British Railway Journeys S09E10 Plymouth to The Lizard
  • Great British Railway Journeys S09E10 Plymouth to The Lizard.mp4 (498.2 MB)
  • Great British Railway Journeys S09E10 Plymouth to The Lizard.jpg (1.0 MB)
  • About this torrent.txt (1.8 KB)
  • Great British Railway Journeys S09E10 Plymouth to The Lizard.srt (59.5 KB)
  • Torrent Downloaded From bcdecker.com.txt (0.0 KB)
  • Torrent Downloaded From Katcr.co - Kickasstorrents.txt (0.1 KB)
  • Torrent_downloaded_from_Demonoid_-_www.demonoid.pw_.txt (0.1 KB)

There are currently no comments. Feel free to leave one :)

Code:

  • udp://tracker.coppersurfer.tk:6969/announce