Goodbye Christopher Robin 2017 720p BRRip x264 AAC 5.1 - Hon3y

  • Category Movies
  • Type HD
  • Language English
  • Total size 1.0 GB
  • Uploaded By Hon3yHD
  • Downloads 27
  • Last checked 2 days ago
  • Date uploaded 6 days ago
  • Seeders 4
  • Leechers 0

Goodbye Christopher Robin

FamilyHistory

The behind the scenes story of the life of A.A. Milne and the creation of the Winnie the Pooh stories inspired by his son Christopher Robin.

Infohash : E512B97F7EA2A26C78AA1BBF18A425CC602D41FE



Goodbye Christopher Robin 2017 720p BRRip x264 AAC 5.1 - Hon3y

Source:Drones
Format : Matroska
Format version : Version 4 / Version 2
File size : 1.04 GiB
Duration : 1 h 47 min
Overall bit rate : 1 395 kb/s
Movie name : Goodbye Christopher Robin 2017 -Hon3y


Video
ID : 1
Format : AVC
Format/Info : Advanced Video Codec
Format profile : [email protected]
Format settings, CABAC : Yes
Format settings, RefFrames : 8 frames
Codec ID : V_MPEG4/ISO/AVC
Duration : 1 h 47 min
Bit rate : 1 200 kb/s
Width : 1 280 pixels
Height : 688 pixels
Display aspect ratio : 1.85:1
Frame rate mode : Constant
Frame rate : 23.976 (24000/1001) FPS


Audio
ID : 2
Format : AAC
Format/Info : Advanced Audio Codec
Format profile : LC
Codec ID : A_AAC
Duration : 1 h 47 min
Bit rate : 192 kb/s
Channel(s) : 6 channels
Channel positions : Front: L C R, Side: L R, LFE
Sampling rate : 48.0 kHz
Frame rate : 46.875 FPS (1024 SPF)
Compression mode : Lossy
Delay relative to video : -21 ms
Stream size : 147 MiB (14%)
Title : Surround
Language : English
Default : Yes
Forced : No

Text #1
ID : 3
Format : UTF-8
Codec ID : S_TEXT/UTF8
Codec ID/Info : UTF-8 Plain Text
Duration : 1 h 40 min
Bit rate : 70 b/s
Count of elements : 1786
Stream size : 51.5 KiB (0%)
Language : English
Default : Yes
Forced : No

Text #2
ID : 4
Format : UTF-8
Codec ID : S_TEXT/UTF8
Codec ID/Info : UTF-8 Plain Text
Duration : 1 h 41 min
Bit rate : 141 b/s
Count of elements : 2080
Stream size : 105 KiB (0%)
Language : English
Default : No
Forced : No

Menu
00:00:00.000 : :00:00:00.000
00:04:03.952 : :00:04:03.952
00:07:01.171 : :00:07:01.171
00:10:32.632 : :00:10:32.632
00:13:40.528 : :00:13:40.528
00:16:48.591 : :00:16:48.591
00:20:43.409 : :00:20:43.409
00:25:44.793 : :00:25:44.793
00:30:36.752 : :00:30:36.752
00:35:25.582 : :00:35:25.582
00:40:50.740 : :00:40:50.740
00:48:22.108 : :00:48:22.108
00:52:32.733 : :00:52:32.733
00:57:53.595 : :00:57:53.595
01:03:35.812 : :01:03:35.812
01:07:38.513 : :01:07:38.513
01:12:43.860 : :01:12:43.859
01:18:55.731 : :01:18:55.731
01:21:45.609 : :01:21:45.609
01:25:16.653 : :01:25:16.653
01:29:10.428 : :01:29:10.428
01:32:27.917 : :01:32:27.917
01:35:55.917 : :01:35:55.917
01:41:03.266 : :01:41:03.266

Files:

Goodbye Christopher Robin 2017 720p BRRip x264 AAC 5.1 - Hon3y
  • Goodbye Christopher Robin 2017 720p BRRip x264 AAC 5.1 - Hon3y.mkv (1.0 GB)
  • Torrent Seed By www.cyber-planet.in.txt (0.1 KB)
  • www.hon3yhd.to.txt (0.2 KB)

There are currently no comments. Feel free to leave one :)

Code:

  • udp://tracker.coppersurfer.tk:6969/announce
  • udp://tracker.pirateparty.gr:6969/announce
  • udp://shadowshq.yi.org:6969/announce
  • udp://eddie4.nl:6969/announce
  • udp://tracker.leechers-paradise.org:6969/announce
  • udp://tracker.opentrackr.org:1337/announce
  • udp://p4p.arenabg.ch:1337/announce
  • udp://p4p.arenabg.com:1337/announce
  • udp://9.rarbg.me:2710/announce
  • udp://9.rarbg.to:2710/announce
  • udp://tracker.coppersurfer.tk:80/announce
  • udp://tracker.vanitycore.co:6969/announce
  • udp://public.popcorn-tracker.org:6969/announce
  • udp://tracker.opentrackr.org:1337/announce
  • udp://tracker.zer0day.to:1337/announce