The Polka King 2017 720p WEBRip x264 AAC- Hon3y

  • Category Movies
  • Type HD
  • Language English
  • Total size 893.8 MB
  • Uploaded By Hon3yHD
  • Downloads 46
  • Last checked 2 days ago
  • Date uploaded 6 days ago
  • Seeders 15
  • Leechers 3

The Polka King

Comedy

Local Pennsylvania polka legend Jan Lewan develops a plan to get rich that shocks his fans and lands him in jail.

Infohash : BFAEDF673F0AB25D78E9FD6F1A5C5E44F00DEB76



The Polka King 2017 720p WEBRip x264 AAC- Hon3y

Source:FCK
Format : Matroska
Format version : Version 4 / Version 2
File size : 894 MiB
Duration : 1 h 34 min
Overall bit rate : 1 329 kb/s
Movie name : The.Polka.King.2017- Hon3y


Video
ID : 1
Format : AVC
Format/Info : Advanced Video Codec
Format profile : [email protected]
Format settings, CABAC : Yes
Format settings, RefFrames : 8 frames
Codec ID : V_MPEG4/ISO/AVC
Duration : 1 h 34 min
Bit rate : 1 200 kb/s
Width : 1 280 pixels
Height : 536 pixels
Display aspect ratio : 2.40:1
Frame rate mode : Constant
Frame rate : 23.976 (24000/1001) FPS


Audio
ID : 2
Format : AAC
Format/Info : Advanced Audio Codec
Format profile : LC
Codec ID : A_AAC
Duration : 1 h 34 min
Bit rate : 127 kb/s
Channel(s) : 2 channels
Channel positions : Front: L R
Sampling rate : 48.0 kHz
Frame rate : 46.875 FPS (1024 SPF)
Compression mode : Lossy
Delay relative to video : -21 ms
Stream size : 85.4 MiB (10%)
Title : Stereo
Language : English
Default : Yes
Forced : No

Text
ID : 3
Format : UTF-8
Codec ID : S_TEXT/UTF8
Codec ID/Info : UTF-8 Plain Text
Duration : 1 h 31 min
Bit rate : 86 b/s
Count of elements : 1600
Stream size : 57.7 KiB (0%)
Title : English
Language : English
Default : Yes
Forced : No

Files:

The Polka King 2017 720p WEBRip x264 AAC- Hon3y
  • The Polka King 2017 720p WEBRip x264 AAC- Hon3y.mkv (893.8 MB)
  • Torrent Seed By www.cyber-planet.in.txt (0.1 KB)
  • www.hon3yhd.to.txt (0.2 KB)

There are currently no comments. Feel free to leave one :)

Code:

  • udp://tracker.coppersurfer.tk:6969/announce
  • udp://tracker.pirateparty.gr:6969/announce
  • udp://shadowshq.yi.org:6969/announce
  • udp://eddie4.nl:6969/announce
  • udp://tracker.leechers-paradise.org:6969/announce
  • udp://tracker.opentrackr.org:1337/announce
  • udp://p4p.arenabg.ch:1337/announce
  • udp://p4p.arenabg.com:1337/announce
  • udp://9.rarbg.me:2710/announce
  • udp://9.rarbg.to:2710/announce
  • udp://tracker.coppersurfer.tk:80/announce
  • udp://tracker.vanitycore.co:6969/announce
  • udp://public.popcorn-tracker.org:6969/announce
  • udp://tracker.opentrackr.org:1337/announce
  • udp://tracker.zer0day.to:1337/announce