Shut Eye Season 2. revittony

  • Category TV
  • Type SD
  • Language English
  • Total size 2.5 GB
  • Uploaded By revittony
  • Downloads 30
  • Last checked 41 minutes ago
  • Date uploaded 4 days ago
  • Seeders 6
  • Leechers 4

Infohash : 89FA954DD98A01986C2710A277ED8A649F5D9F89

Format : Matroska
Format version : Version 4 / Version 2
Overall bit rate : 654 kb/s
Encoded date : UTC 2017-12-06 07:13:27
Writing application : mkvmerge v8.8.0 ('Wind at my back') 64bit
Writing library : libebml v1.3.3 + libmatroska v1.4.4

Video
ID : 1
Format : AVC
Format/Info : Advanced Video Codec
Format profile : [email protected]
Format settings : CABAC / 5 Ref Frames
Format settings, CABAC : Yes
Format settings, RefFrames : 5 frames
Codec ID : V_MPEG4/ISO/AVC
Duration : 50 min 24 s
Bit rate : 588 kb/s
Width : 704 pixels
Height : 396 pixels
Display aspect ratio : 16:9
Frame rate mode : Constant
Frame rate : 23.976 (24000/1001) FPS
Color space : YUV
Chroma subsampling : 4:2:0
Bit depth : 8 bits
Scan type : Progressive
Bits/(Pixel*Frame) : 0.088
Stream size : 212 MiB (90%)
Default : Yes
Forced : No

Audio
ID : 2
Format : AAC
Format/Info : Advanced Audio Codec
Format profile : HE-AAC / LC
Format settings : Explicit
Codec ID : A_AAC-2
Duration : 50 min 24 s
Bit rate : 64.0 kb/s
Channel(s) : 2 channels
Channel positions : Front: L R
Sampling rate : 48.0 kHz / 24.0 kHz
Frame rate : 23.438 FPS (1024 SPF)
Compression mode : Lossy
Stream size : 23.1 MiB (10%)
Default : Yes
Forced : No

Files:

Shut Eye Season 2
  • S02E01 We're Not in Kansas Anymore.mkv (235.8 MB)
  • S02E02 Shortchanged.mkv (239.8 MB)
  • S02E03 Guys and Dolls.mkv (230.9 MB)
  • S02E04 Are You Listening.mkv (256.1 MB)
  • S02E05 Charles the Magnificent.mkv (277.1 MB)
  • S02E06 Crimes and Punishments.mkv (263.6 MB)
  • S02E07 Purple Hearts.mkv (247.0 MB)
  • S02E08 Karma Chameleon.mkv (256.7 MB)
  • S02E09 Verite.mkv (237.6 MB)
  • S02E10 There's No Place Like Home.mkv (297.8 MB)

There are currently no comments. Feel free to leave one :)

Code:

  • udp://tracker.openbittorrent.com:80/announce
  • udp://tracker.publicbt.com:80/announce
  • udp://tracker.coppersurfer.tk:6969/announce
  • udp://tracker.zer0day.to:1337/announce
  • udp://tracker.leechers-paradise.org:6969