The Mindy Project Season 6. revittony

  • Category TV
  • Type SD
  • Language English
  • Total size 1.5 GB
  • Uploaded By revittony
  • Downloads 17
  • Last checked 15 hours ago
  • Date uploaded 5 days ago
  • Seeders 3
  • Leechers 3

Infohash : A62B96220BDF7C7633F61008D532443E335814D9


Format : Matroska
Format version : Version 4 / Version 2
Overall bit rate : 883 kb/s
Encoded date : UTC 2017-09-12 05:22:01
Writing application : mkvmerge v8.8.0 ('Wind at my back') 64bit
Writing library : libebml v1.3.3 + libmatroska v1.4.4

Video
ID : 1
Format : AVC
Format/Info : Advanced Video Codec
Format profile : [email protected]
Format settings : CABAC / 5 Ref Frames
Format settings, CABAC : Yes
Format settings, RefFrames : 5 frames
Codec ID : V_MPEG4/ISO/AVC
Duration : 23 min 29 s
Bit rate : 818 kb/s
Width : 704 pixels
Height : 396 pixels
Display aspect ratio : 16:9
Frame rate mode : Constant
Frame rate : 23.976 (24000/1001) FPS
Color space : YUV
Chroma subsampling : 4:2:0
Bit depth : 8 bits
Scan type : Progressive
Bits/(Pixel*Frame) : 0.122
Stream size : 137 MiB (93%)
Default : Yes
Forced : No

Audio
ID : 2
Format : AAC
Format/Info : Advanced Audio Codec
Format profile : HE-AAC / LC
Format settings : Explicit
Codec ID : A_AAC-2
Duration : 23 min 29 s
Bit rate : 64.0 kb/s
Channel(s) : 2 channels
Channel positions : Front: L R
Sampling rate : 48.0 kHz / 24.0 kHz
Frame rate : 23.438 FPS (1024 SPF)
Compression mode : Lossy
Stream size : 10.8 MiB (7%)
Default : Yes
Forced : No

Files:

The Mindy Project Season 6
  • Original File Names.txt (0.5 KB)
  • S06E01 Is That All There Is.mkv (148.5 MB)
  • S06E02 A Romantical Decouplement.mkv (138.5 MB)
  • S06E03 May Divorce Be With You.mkv (146.0 MB)
  • S06E04 Leo's Girlfriend.mkv (141.0 MB)
  • S06E05 Jeremy & Anna's Meryl Streep Costume Party.mkv (148.7 MB)
  • S06E06 The Midwife's Tale.mkv (147.9 MB)
  • S06E07 Girl Gone Wild.mkv (150.1 MB)
  • S06E08 Doctors Without Boundaries.mkv (144.7 MB)
  • S06E09 Danny in Real Life.mkv (156.2 MB)
  • S06E10 It Had to Be You.mp4 (264.8 MB)

There are currently no comments. Feel free to leave one :)

Code:

  • udp://tracker.openbittorrent.com:80/announce
  • udp://tracker.publicbt.com:80/announce
  • udp://tracker.coppersurfer.tk:6969/announce
  • udp://tracker.zer0day.to:1337/announce
  • udp://tracker.leechers-paradise.org:6969