American Made 2017 (1080p Bluray x265 HEVC 10bit AAC 7.1 Tigole) ...

  • Category Movies
  • Type HEVC/x265
  • Language English
  • Total size 4.5 GB
  • Uploaded By UTRplus
  • Downloads 933
  • Last checked 12 minutes ago
  • Date uploaded 1 week ago
  • Seeders 46
  • Leechers 35

American Made

ComedyActionCrimeThriller

The true story of pilot Barry Seal, who transported contraband for the CIA and the Medellin cartel in the 1980s.

Infohash : BB8DE580F9DB87D40FF3C31091673FDD856F864E



American Made 2017 in 1080p, encoded with x265 in HEVC and AAC 7.1 English, with subtitles!
Encoded using the time consuming 2 pass, 10 bit color at 4250 kbps, from a Blu-ray source, for the highest quality possible.



Media Information

Code:

General
Format : Matroska
Format version : Version 4 / Version 2
File size : 3.95 GiB
Duration : 1 h 54 min
Overall bit rate : 4 923 kb/s
Movie name : American Made
Encoded date : UTC 2017-12-06 09:31:36
Writing application : mkvmerge v14.0.0 ('Flow') 64bit
Writing library : libebml v1.3.4 + libmatroska v1.4.5

Video
ID : 1
Format : HEVC
Format/Info : High Efficiency Video Coding
Format profile : Main [email protected]@Main
Codec ID : V_MPEGH/ISO/HEVC
Duration : 1 h 54 min
Bit rate : 4 250 kb/s
Width : 1 920 pixels
Height : 1 040 pixels
Display aspect ratio : 1.85:1
Frame rate mode : Constant
Frame rate : 23.976 (24000/1001) FPS
Color space : YUV
Chroma subsampling : 4:2:0
Bit depth : 10 bits
Bits/(Pixel*Frame) : 0.089
Stream size : 3.41 GiB (86%)
Writing library : x265 2.5+66-dae558b40d99:[Windows][GCC 7.2.0][64 bit] 10bit
Encoding settings : cpuid=1173503 / frame-threads=3 / numa-pools=8 / wpp / no-pmode / no-pme / no-psnr / no-ssim / log-level=2 / input-csp=1 / input-res=1920x1040 / interlace=0 / total-frames=165408 / level-idc=0 / high-tier=1 / uhd-bd=0 / ref=4 / no-allow-non-conformance / no-repeat-headers / annexb / no-aud / no-hrd / info / hash=0 / no-temporal-layers / open-gop / min-keyint=23 / keyint=250 / bframes=4 / b-adapt=2 / b-pyramid / bframe-bias=0 / rc-lookahead=25 / lookahead-slices=4 / scenecut=40 / no-intra-refresh / ctu=64 / min-cu-size=8 / rect / no-amp / max-tu-size=32 / tu-inter-depth=1 / tu-intra-depth=1 / limit-tu=0 / rdoq-level=2 / dynamic-rd=0.00 / no-ssim-rd / signhide / no-tskip / nr-intra=0 / nr-inter=0 / no-constrained-intra / strong-intra-smoothing / max-merge=3 / limit-refs=3 / limit-modes / me=3 / subme=3 / merange=57 / temporal-mvp / weightp / no-weightb / no-analyze-src-pics / deblock=0:0 / sao / no-sao-non-deblock / rd=4 / no-early-skip / rskip / no-fast-intra / no-tskip-fast / no-cu-lossless / no-b-intra / no-splitrd-skip / rdpenalty=0 / psy-rd=2.00 / psy-rdoq=1.00 / no-rd-refine / analysis-reuse-mode=0 / no-lossless / cbqpoffs=0 / crqpoffs=0 / rc=abr / bitrate=4250 / qcomp=0.60 / qpstep=4 / stats-write=0 / stats-read=2 / cplxblur=20.0 / qblur=0.5 / ipratio=1.40 / pbratio=1.30 / aq-mode=3 / aq-strength=1.00 / cutree / zone-count=0 / no-strict-cbr / qg-size=32 / no-rc-grain / qpmax=69 / qpmin=0 / no-const-vbv / sar=0 / overscan=0 / videoformat=5 / range=0 / colorprim=2 / transfer=2 / colormatrix=2 / chromaloc=0 / display-window=0 / max-cll=0,0 / min-luma=0 / max-luma=1023 / log2-max-poc-lsb=8 / vui-timing-info / vui-hrd-info / slices=1 / no-opt-qp-pps / no-opt-ref-list-length-pps / no-multi-pass-opt-rps / scenecut-bias=0.05 / no-opt-cu-delta-qp / no-aq-motion / no-hdr / no-hdr-opt / no-dhdr10-opt / analysis-reuse-level=5 / scale-factor=0 / refine-intra=0 / refine-inter=0 / refine-mv=0 / no-limit-sao / ctu-info=0 / no-lowpass-dct / refine-mv-type=0 / copy-pic=1
Default : Yes
Forced : No

Audio
ID : 2
Format : AAC
Format/Info : Advanced Audio Codec
Format profile : LC
Codec ID : A_AAC
Duration : 1 h 54 min
Bit rate : 594 kb/s
Channel(s) : 8 channels
Channel positions : Front: L C R, Side: 4, LFE
Sampling rate : 48.0 kHz
Frame rate : 46.875 FPS (1024 spf)
Compression mode : Lossy
Delay relative to video : 20 ms
Stream size : 488 MiB (12%)
Language : English
Default : Yes
Forced : No

Text #1
ID : 3
Format : VobSub
Muxing mode : zlib
Codec ID : S_VOBSUB
Codec ID/Info : Picture based subtitle format used on DVDs
Duration : 1 h 45 min
Bit rate : 12.6 kb/s
Count of elements : 1766
Stream size : 9.55 MiB (0%)
Language : English
Default : No
Forced : No

Text #2
ID : 4
Format : VobSub
Muxing mode : zlib
Codec ID : S_VOBSUB
Codec ID/Info : Picture based subtitle format used on DVDs
Duration : 37 min 39 s
Bit rate : 249 b/s
Count of elements : 17
Stream size : 68.9 KiB (0%)
Title : Forced
Language : English
Default : No
Forced : Yes

Text #3
ID : 5
Format : VobSub
Muxing mode : zlib
Codec ID : S_VOBSUB
Codec ID/Info : Picture based subtitle format used on DVDs
Duration : 1 h 53 min
Bit rate : 4 861 b/s
Count of elements : 1507
Stream size : 3.94 MiB (0%)
Language : Arabic
Default : No
Forced : No

Text #4
ID : 6
Format : VobSub
Muxing mode : zlib
Codec ID : S_VOBSUB
Codec ID/Info : Picture based subtitle format used on DVDs
Duration : 1 h 53 min
Bit rate : 6 156 b/s
Count of elements : 1495
Stream size : 4.99 MiB (0%)
Language : Chinese
Default : No
Forced : No

Text #5
ID : 7
Format : VobSub
Muxing mode : zlib
Codec ID : S_VOBSUB
Codec ID/Info : Picture based subtitle format used on DVDs
Duration : 1 h 53 min
Bit rate : 7 594 b/s
Count of elements : 1012
Stream size : 6.15 MiB (0%)
Language : Danish
Default : No
Forced : No

Text #6
ID : 8
Format : VobSub
Muxing mode : zlib
Codec ID : S_VOBSUB
Codec ID/Info : Picture based subtitle format used on DVDs
Duration : 1 h 53 min
Bit rate : 7 460 b/s
Count of elements : 1008
Stream size : 6.04 MiB (0%)
Language : Dutch
Default : No
Forced : No

Text #7
ID : 9
Format : VobSub
Muxing mode : zlib
Codec ID : S_VOBSUB
Codec ID/Info : Picture based subtitle format used on DVDs
Duration : 1 h 53 min
Bit rate : 8 099 b/s
Count of elements : 1471
Stream size : 6.56 MiB (0%)
Language : Finnish
Default : No
Forced : No

Text #8
ID : 10
Format : VobSub
Muxing mode : zlib
Codec ID : S_VOBSUB
Codec ID/Info : Picture based subtitle format used on DVDs
Duration : 1 h 53 min
Bit rate : 7 045 b/s
Count of elements : 1298
Stream size : 5.71 MiB (0%)
Language : French
Default : No
Forced : No

Text #9
ID : 11
Format : VobSub
Muxing mode : zlib
Codec ID : S_VOBSUB
Codec ID/Info : Picture based subtitle format used on DVDs
Duration : 1 h 53 min
Bit rate : 8 884 b/s
Count of elements : 1211
Stream size : 7.20 MiB (0%)
Language : German
Default : No
Forced : No

Text #10
ID : 12
Format : VobSub
Muxing mode : zlib
Codec ID : S_VOBSUB
Codec ID/Info : Picture based subtitle format used on DVDs
Duration : 1 h 52 min
Bit rate : 175 b/s
Count of elements : 23
Stream size : 144 KiB (0%)
Title : Forced
Language : German
Default : No
Forced : No

Text #11
ID : 13
Format : VobSub
Muxing mode : zlib
Codec ID : S_VOBSUB
Codec ID/Info : Picture based subtitle format used on DVDs
Duration : 1 h 53 min
Bit rate : 7 153 b/s
Count of elements : 1507
Stream size : 5.80 MiB (0%)
Language : Hindi
Default : No
Forced : No

Text #12
ID : 14
Format : VobSub
Muxing mode : zlib
Codec ID : S_VOBSUB
Codec ID/Info : Picture based subtitle format used on DVDs
Duration : 1 h 53 min
Bit rate : 9 000 b/s
Count of elements : 1492
Stream size : 7.29 MiB (0%)
Language : Icelandic
Default : No
Forced : No

Text #13
ID : 15
Format : VobSub
Muxing mode : zlib
Codec ID : S_VOBSUB
Codec ID/Info : Picture based subtitle format used on DVDs
Duration : 1 h 53 min
Bit rate : 8 146 b/s
Count of elements : 1477
Stream size : 6.60 MiB (0%)
Language : Italian
Default : No
Forced : No

Text #14
ID : 16
Format : VobSub
Muxing mode : zlib
Codec ID : S_VOBSUB
Codec ID/Info : Picture based subtitle format used on DVDs
Duration : 1 h 53 min
Bit rate : 6 566 b/s
Count of elements : 1236
Stream size : 5.32 MiB (0%)
Language : Norwegian Bokmal
Default : No
Forced : No

Text #15
ID : 17
Format : VobSub
Muxing mode : zlib
Codec ID : S_VOBSUB
Codec ID/Info : Picture based subtitle format used on DVDs
Duration : 1 h 53 min
Bit rate : 8 530 b/s
Count of elements : 1326
Stream size : 6.92 MiB (0%)
Language : Portuguese
Default : No
Forced : No

Text #16
ID : 18
Format : VobSub
Muxing mode : zlib
Codec ID : S_VOBSUB
Codec ID/Info : Picture based subtitle format used on DVDs
Duration : 1 h 53 min
Bit rate : 8 332 b/s
Count of elements : 1466
Stream size : 6.75 MiB (0%)
Language : Spanish
Default : No
Forced : No

Text #17
ID : 19
Format : VobSub
Muxing mode : zlib
Codec ID : S_VOBSUB
Codec ID/Info : Picture based subtitle format used on DVDs
Duration : 1 h 53 min
Bit rate : 7 934 b/s
Count of elements : 1150
Stream size : 6.43 MiB (0%)
Language : Swedish
Default : No
Forced : No

Menu
00:00:00.000 : en:Chapter 01
00:06:00.318 : en:Chapter 02
00:10:42.516 : en:Chapter 03
00:14:36.500 : en:Chapter 04
00:21:19.611 : en:Chapter 05
00:27:25.226 : en:Chapter 06
00:33:47.692 : en:Chapter 07
00:41:02.585 : en:Chapter 08
00:46:16.023 : en:Chapter 09
00:51:57.114 : en:Chapter 10
00:54:59.713 : en:Chapter 11
00:59:58.177 : en:Chapter 12
01:07:29.837 : en:Chapter 13
01:13:06.507 : en:Chapter 14
01:17:12.878 : en:Chapter 15
01:23:21.329 : en:Chapter 16
01:26:16.713 : en:Chapter 17
01:33:34.483 : en:Chapter 18
01:38:39.455 : en:Chapter 19
01:46:16.953 : en:Chapter 20


Source Information

Code:

Release : American.Made.2017.COMPLETE.BLURAY-PCH
Complete name : American_Made_t02.mkv
File size : 29.5 GiB
Duration : 1 h 54 min
Overall bit rate mode : Variable
Overall bit rate : 36.8 Mb/s


Files:

American Made 2017 (1080p Bluray x265 HEVC 10bit AAC 7.1 Tigole)
  • American Made 2017 (1080p x265 10bit Tigole).mkv (4.0 GB)
  • Featurettes
    • American Storytellers.mkv (80.2 MB)
    • Cruise and Liman - A Conversation.mkv (65.0 MB)
    • Deleted Scenes.mkv (126.3 MB)
    • Flying High.mkv (57.7 MB)
    • In the Wings.mkv (71.6 MB)
    • Shooting American Made.mkv (51.5 MB)
    • The Real Barry Seal.mkv (70.9 MB)

Comments

Code:

  • udp://tracker.torrent.eu.org:451/announce
  • udp://tracker.opentrackr.org:1337/announce
  • udp://tracker.coppersurfer.tk:6969/announce