American Made 2017 English HC HDRip 900MB 720 with SAMPE [ Movies...

  • Category Movies
  • Type HD
  • Language English
  • Total size 909.0 MB
  • Uploaded By faishkhan
  • Downloads 64
  • Last checked 1 week ago
  • Date uploaded 1 week ago
  • Seeders 2
  • Leechers 1

Infohash : 43C628698F3020BF742089EBC145ED42AAF4CB6A





Download in 300MB Click Link: http://movies500.me
[mg]http://s19.postimg.org/kzwatj4j7/American_Made_2017_English_Movies500.ME_720p_HC_HDRip_900_MB.jpg[/img]










Quote:


General
Unique ID                                : 207415973153431205691316225597236101225 (0x9C0ADD056D019167A73CE2D56830C069)
Complete name                            :Amercian Made 2017 English HD HDRip 900MB\American Made 2017 English [ Movies500.ME ] 720p HC HDRip 900MB.mkv
Format                                   : Matroska
Format version                           : Version 4 / Version 2
File size                                : 902 MiB
Duration                                 : 1 h 53 min
Overall bit rate                         : 1 110 kb/s
Movie name                               : Visit www.movies500.me
Encoded date                             : UTC 2017-10-13 07:14:00
Writing application                      : mkvmerge v15.0.0 ('Duel with the Devil') 64-bit
Writing library                          : libebml v1.3.5 + libmatroska v1.4.5

Video
ID                                       : 1
Format                                   : AVC
Format/Info                              : Advanced Video Codec
Format profile                           : [email protected]
Format settings                          : CABAC / 5 Ref Frames
Format settings, CABAC                   : Yes
Format settings, RefFrames               : 5 frames
Codec ID                                 : V_MPEG4/ISO/AVC
Duration                                 : 1 h 53 min
Bit rate                                 : 1 045 kb/s
Width                                    : 1 280 pixels
Height                                   : 688 pixels
Display aspect ratio                     : 1.85:1
Frame rate mode                          : Constant
Frame rate                               : 30.000 FPS
Color space                              : YUV
Chroma subsampling                       : 4:2:0
Bit depth                                : 8 bits
Scan type                                : Progressive
Bits/(Pixel*Frame)                       : 0.040
Stream size                              : 849 MiB (94%)
Title                                    : movies500.me
Writing library                          : x264 core 148 r2708 86b7198
Default                                  : Yes
Forced                                   : No
Color range                              : Limited
Color primaries                          : BT.709
Transfer characteristics                 : BT.709
Matrix coefficients                      : BT.709

Audio
ID                                       : 2
Format                                   : AAC
Format/Info                              : Advanced Audio Codec
Format profile                           : HE-AAC / LC
Format settings                          : Explicit
Codec ID                                 : A_AAC-2
Duration                                 : 1 h 53 min
Bit rate                                 : 64.0 kb/s
Channel(s)                               : 2 channels
Channel positions                        : Front: L R
Sampling rate                            : 48.0 kHz / 24.0 kHz
Frame rate                               : 23.438 FPS (1024 SPF)
Compression mode                         : Lossy
Delay relative to video                  : 31 ms
Stream size                              : 52.0 MiB (6%)
Title                                    : movies500.me
Language                                 : English
Default                                  : Yes
Forced                                   : No

Text
ID                                       : 3
Format                                   : ASS
Codec ID                                 : S_TEXT/ASS
Codec ID/Info                            : Advanced Sub Station Alpha
Bit rate                                 : 0 b/s
Count of elements                        : 0
Compression mode                         : Lossless
Stream size                              : 0.00 Byte (0%)
Title                                    : movies500.me
Default                                  : Yes
Forced                                   : No



Files:

Amercian Made 2017 English HD HDRip 900MB
  • Movies500.ME.txt (0.1 KB)
  • SAMPLE.mkv (6.5 MB)
  • American Made 2017 English [ Movies500.ME ] 720p HC HDRip 900MB.mkv (902.5 MB)

There are currently no comments. Feel free to leave one :)

Code:

  • http://ipv4.tracker.harry.lu/announce
  • http://ipv4.tracker.harry.lu:80/announce
  • http://opentracker-milanesi.rhcloud.com/announce
  • http://t.nyaatracker.com/announce
  • http://tracker.devil-torrents.pl:80/announce
  • http://tracker.devil-torrents.pl/announce
  • http://open.kickasstracker.com/announce
  • http://open.kickasstracker.com:443/announce
  • http://t.nyaatracker.com:80/announce
  • http://retracker.mgts.by:80/announce
  • http://45.33.11.224/announce
  • http://tracker.torrentyorg.pl:80/announce
  • http://pt.lax.mx:80/announce
  • UDP://TRACKER.LEECHERS-PARADISE.ORG:6969/ANNOUNCE
  • UDP://TRACKER.LEECHERS-PARADISE.ORG:6969/ANNOUNCE