The Lego Ninjago Movie 2017 1080p HC HDRip X264 AC3 [Moviezworldz...

  • Category Movies
  • Type HD
  • Language English
  • Total size 1.1 GB
  • Uploaded By moviezworldz
  • Downloads 102
  • Last checked 1 week ago
  • Date uploaded 1 week ago
  • Seeders 13
  • Leechers 6

The LEGO Ninjago Movie

ActionAnimationComedy

Six young ninjas are tasked with defending their island home of Ninjago. By night, they’re gifted warriors using their skill and awesome fleet of vehicles to fight villains and monsters. By day, they’re ordinary teens struggling against their greatest enemy....high school.

Infohash : 075CAFEA53D29D9C804840F166E5D1FED229F74C



General
Format : Matroska
Format version : Version 4 / Version 2
File size : 1.10 GiB
Duration : 1 h 37 min
Overall bit rate : 1 624 kb/s

Video
ID : 1
Format : AVC
Format/Info : Advanced Video Codec
Format profile : [email protected]
Format settings : CABAC / 4 Ref Frames
Format settings, CABAC : Yes
Format settings, RefFrames : 4 frames
Codec ID : V_MPEG4/ISO/AVC
Duration : 1 h 37 min
Bit rate : 1 500 kb/s
Width : 1 920 pixels
Height : 800 pixels
Display aspect ratio : 2.40:1
Frame rate mode : Constant
Frame rate : 25.000 FPS
Color space : YUV
Chroma subsampling : 4:2:0
Bit depth : 8 bits
Scan type : Progressive
Bits/(Pixel*Frame) : 0.039
Stream size : 1.01 GiB (92%)
Writing library : x264 core 148 r2643 5c65704
Default : Yes
Forced : No

Audio
ID : 2
Format : AC-3
Format/Info : Audio Coding 3
Format settings, Endianness : Big
Codec ID : A_AC3
Duration : 1 h 37 min
Bit rate mode : Constant
Bit rate : 128 kb/s
Channel(s) : 2 channels
Channel positions : Front: L R
Sampling rate : 44.1 kHz
Frame rate : 28.711 FPS (1536 SPF)
Bit depth : 16 bits
Compression mode : Lossy
Stream size : 89.0 MiB (8%)
Service kind : Complete Main
Default : Yes
Forced : No






Files:

The Lego Ninjago Movie 2017 1080p HC HDRip X264 AC3
  • The Lego Ninjago Movie 2017 1080p HC HDRip X264 AC3.mkv (1.1 GB)

There are currently no comments. Feel free to leave one :)

Code:

  • http://ipv4.tracker.harry.lu/announce
  • http://ipv4.tracker.harry.lu:80/announce
  • udp://tracker.pirateparty.gr:6969/announce
  • http://tracker.devil-torrents.pl:80/announce
  • http://tracker.devil-torrents.pl/announce
  • http://open.kickasstracker.com/announce
  • http://open.kickasstracker.com:443/announce
  • udp://p4p.arenabg.com:1337/announce
  • udp://9.rarbg.me:2770/announce
  • udp://9.rarbg.com:2740/announce
  • udp://9.rarbg.to:2750/announce
  • udp://tracker.coppersurfer.tk:6969/announce
  • udp://tracker.leechers-paradise.org:6969/announce
  • udp://tracker.zer0day.to:1337/announce
  • http://tracker.devil-torrents.pl/announce