Spider-Man Homecoming 2017 1080p BluRay DTS 5.1 MAVI

  • Category Movies
  • Type HD
  • Language English
  • Total size 5.7 GB
  • Uploaded By sujit2324
  • Downloads 72
  • Last checked 1 week ago
  • Date uploaded 1 week ago
  • Seeders 8
  • Leechers 5

Spider-Man: Homecoming

ActionAdventureScience Fiction

Following the events of Captain America: Civil War, Peter Parker, with the help of his mentor Tony Stark, tries to balance his life as an ordinary high school student in Queens, New York City, with fighting crime as his superhero alter ego Spider-Man as a new threat, the Vulture, emerges.

Infohash : 6EE168FFD4463BC33D406D87F3E90D59169FF7FE




Movie Encode From Full BD/BDREMUX

Spider-Man Homecoming 2017 1080p BluRay DTS 5.1 MAVI

IMDB Link

Join Us Now

Join Us Now FaceBook

Org Bluray Audio

Sample Include in torrent

Video
ID : 1
Format : AVC
Format/Info : Advanced Video Codec
Format profile : [email protected]
Format settings : CABAC / 4 Ref Frames
Format settings, CABAC : Yes
Format settings, RefFrames : 4 frames
Codec ID : V_MPEG4/ISO/AVC
Duration : 2 h 13 min
Bit rate : 4 500 kb/s
Width : 1 920 pixels
Height : 804 pixels
Display aspect ratio : 2.40:1
Frame rate mode : Constant
Frame rate : 23.976 (24000/1001) FPS
Color space : YUV
Chroma subsampling : 4:2:0
Bit depth : 8 bits
Scan type : Progressive
Bits/(Pixel*Frame) : 0.122
Stream size : 4.19 GiB (74%)
Title : Spider-Man Homecoming 2017 1080p BluRay DTS 5.1 MAVI
Language : English
Default : Yes
Forced : No
Color range : Limited
Color primaries : BT.709
Transfer characteristics : BT.709
Matrix coefficients : BT.709

Audio
ID : 2
Format : DTS
Format/Info : Digital Theater Systems
Mode : 16
Format settings, Endianness : Big
Codec ID : A_DTS
Duration : 2 h 13 min
Bit rate mode : Constant
Bit rate : 1 509 kb/s
Channel(s) : 6 channels
Channel positions : Front: L C R, Side: L R, LFE
Sampling rate : 48.0 kHz
Frame rate : 93.750 FPS (512 SPF)
Bit depth : 16 bits
Compression mode : Lossy
Stream size : 1.41 GiB (25%)
Title : English-DTS-5.1-1509kbps
Language : English
Default : No
Forced : No

Text #1
ID : 3
Format : PGS
Codec ID : S_HDMV/PGS
Codec ID/Info : Picture based subtitle format used on BDs/HD-DVDs
Duration : 2 h 12 min
Bit rate : 38.6 kb/s
Count of elements : 3555
Stream size : 36.5 MiB (1%)
Title : English-PGS
Language : English
Default : Yes
Forced : No

Text #2
ID : 4
Format : PGS
Codec ID : S_HDMV/PGS
Codec ID/Info : Picture based subtitle format used on BDs/HD-DVDs
Duration : 2 h 12 min
Bit rate : 45.6 kb/s
Count of elements : 4421
Stream size : 43.3 MiB (1%)
Title : English-SDH-PGS
Language : English
Default : No
Forced : No

Text #3
ID : 5
Format : PGS
Codec ID : S_HDMV/PGS
Codec ID/Info : Picture based subtitle format used on BDs/HD-DVDs
Duration : 5 s 130 ms
Bit rate : 53.3 kb/s
Count of elements : 4
Stream size : 33.4 KiB (0%)
Title : English-FORCED-PGS
Language : English
Default : No
Forced : No

Menu
00:00:00.000 : en:Chapter 01
00:05:33.791 : en:Chapter 02
00:14:24.113 : en:Chapter 03
00:20:50.707 : en:Chapter 04
00:26:19.077 : en:Chapter 05
00:36:27.727 : en:Chapter 06
00:46:03.635 : en:Chapter 07
00:54:40.151 : en:Chapter 08
01:05:10.156 : en:Chapter 09
01:12:03.277 : en:Chapter 10
01:20:19.815 : en:Chapter 11
01:29:41.501 : en:Chapter 12
01:36:56.894 : en:Chapter 13
01:44:44.152 : en:Chapter 14
01:50:31.124 : en:Chapter 15
01:57:53.566 : en:Chapter 16












Files:

Spider-Man Homecoming 2017 1080p BluRay DTS 5.1 MAVI
  • Spider-Man Homecoming 2017 1080p BluRay DTS 5.1 MAVI.mkv (5.7 GB)
  • Sample Spider-Man Homecoming 2017 1080p.mkv (49.2 MB)
  • SS
    • Spi (4).png (1.8 MB)
    • Spi (1).png (1.8 MB)
    • Spi (7).png (1.6 MB)
    • Spi (6).png (1.6 MB)
    • Spi (2).png (1.6 MB)
    • Spi (10).png (1.5 MB)
    • Spi (5).png (1.4 MB)
    • Spi (3).png (1.4 MB)
    • Spi (9).png (1.4 MB)
    • Spi (8).png (1.3 MB)
  • Torrent_downloaded_from_Demonoid_-_www.demonoid.pw_.txt (0.1 KB)
  • Follow Me on FB.txt (0.1 KB)
  • Torrent Download From Extradesimovies.in.txt (0.0 KB)

There are currently no comments. Feel free to leave one :)

Code:

  • udp://inferno.demonoid.pw:3391/announce
  • udp://tracker.opentrackr.org:1337/announce
  • udp://tracker.coppersurfer.tk:6969/announce
  • udp://tracker.ilibr.org:6969/announce
  • udp://zer0day.to:1337/announce
  • udp://tracker.zer0day.to:1337/announce
  • udp://p4p.arenabg.com:1337/announce
  • udp://p4p.arenabg.ch:1337/announce
  • udp://eddie4.nl:6969/announce
  • udp://tracker.openbittorrent.com:80/announce
  • http://glotorrents.pw:80/announce
  • udp://thetracker.org:80/announce
  • udp://tracker.leechers-paradise.org:6969/announce
  • udp://tracker.sktorrent.net:6969/announce
  • udp://9.rarbg.me:2770/announce
  • udp://tracker.piratepublic.com:1337/announce
  • udp://coppersurfer.tk:6969/announce
  • udp://open.demonii.com:1337
  • udp://eddie4.nl:6969
  • udp://opentrackr.org:1337
  • udp://tracker.pirateparty.gr:6969
  • UDP://TRACKER.LEECHERS-PARADISE.ORG:6969/ANNOUNCE
  • UDP://TRACKER.COPPERSURFER.TK:6969/ANNOUNCE
  • UDP://TRACKER.OPENTRACKR.ORG:1337/ANNOUNCE
  • UDP://TRACKER.ZER0DAY.TO:1337/ANNOUNCE
  • UDP://EDDIE4.NL:6969/ANNOUNCE